We need more active people on chat! Click me!    Login or Register

NFO File

For You.Were.Never.Really.Here.2017.1080p.WEB-DL.DD5.1.H264-FGT

You.Were.Never.Really.Here.2017.1080p.WEB-DL.DD5.1.H264-FGT

Genres:	Drama , Mystery , Thriller
Language: English
IMDB: http://imdb.com/title/tt5742374/
Size: 3.11 GiB
Plot: Balancing between feverish dreamlike hallucinations of a tormented past and a grim disoriented reality, the grizzled Joe–a traumatised Gulf War veteran and now an unflinching hired gun who lives with his frail elderly mother–has just finished successfully yet another job. With an infernal reputation of being a brutal man of results, the specialised in recovering missing teens enforcer will embark on a blood-drenched rescue mission, when Nina, the innocent 13-year-old daughter of an ambitious New York senator, never returns home. But amidst half-baked leads and a desperate desire to shake off his shoulders the heavy burden of a personal hell, Joe’s frenzied plummet into the depths of Tartarus is inevitable, and every step Joe takes to flee the pain, brings him closer to the horrors of insanity. In the end, what is real, and what is a dream? Can there be a new chapter in Joe’s life when he keeps running around in circles?

MediaInfo:

Video
ID                                       : 1
Format                                   : AVC
Format/Info                              : Advanced Video Codec
Format profile                           : [email protected]
Format settings                          : CABAC / 5 Ref Frames
Format settings, CABAC                   : Yes
Format settings, ReFrames                : 5 frames
Codec ID                                 : V_MPEG4/ISO/AVC
Duration                                 : 1 h 29 min
Bit rate                                 : 4 591 kb/s
Width                                    : 1 920 pixels
Height                                   : 796 pixels
Display aspect ratio                     : 2.40:1
Frame rate mode                          : Constant
Frame rate                               : 24.000 FPS
Color space                              : YUV
Chroma subsampling                       : 4:2:0
Bit depth                                : 8 bits
Scan type                                : Progressive
Bits/(Pixel*Frame)                       : 0.125
Stream size                              : 2.87 GiB (92%)
Title                                    : You.Were.Never.Really.Here.2017.1080p.WEB-DL.DD5.1.H264-FGT
Language                                 : English
Default                                  : Yes
Forced                                   : No
Color range                              : Limited
Color primaries                          : BT.709
Transfer characteristics                 : BT.709
Matrix coefficients                      : BT.709

Audio
ID                                       : 2
Format                                   : AC-3
Format/Info                              : Audio Coding 3
Codec ID                                 : A_AC3
Duration                                 : 1 h 29 min
Bit rate mode                            : Constant
Bit rate                                 : 384 kb/s
Channel(s)                               : 6 channels
Channel positions                        : Front: L C R, Side: L R, LFE
Sampling rate                            : 48.0 kHz
Frame rate                               : 31.250 FPS (1536 SPF)
Bit depth                                : 16 bits
Compression mode                         : Lossy
Delay relative to video                  : -42 ms
Stream size                              : 246 MiB (8%)
Title                                    : You.Were.Never.Really.Here.2017.1080p.WEB-DL.DD5.1.H264-FGT
Language                                 : English
Service kind                             : Complete Main
Default                                  : Yes
Forced                                   : No