We need more active people on chat! Click me!    Login or Register

NFO File

For You.Were.Never.Really.Here.2018.VOSTFR.BDRip.XviD-PREUMS

General
Complete name                  : G:\You Were Never Really (2018)\You.Were.Never.Really.Here.2018.VOSTFR.BDRip.XviD-PREUMS.avi
Format                         : AVI
Format/Info                    : Audio Video Interleave
File size                      : 1.33 GiB
Duration                       : 1 h 29 min
Overall bit rate               : 2 127 kb/s
Writing library                : VirtualDub build 32593/release

Video
ID                             : 0
Format                         : MPEG-4 Visual
Format profile                 : Advanced [email protected]
Format settings, BVOP          : 2
Format settings, QPel          : No
Format settings, GMC           : No warppoints
Format settings, Matrix        : Default (H.263)
Muxing mode                    : Packed bitstream
Codec ID                       : XVID
Codec ID/Hint                  : XviD
Duration                       : 1 h 29 min
Bit rate                       : 1 670 kb/s
Width                          : 720 pixels
Height                         : 304 pixels
Display aspect ratio           : 2.35:1
Frame rate                     : 24.000 FPS
Color space                    : YUV
Chroma subsampling             : 4:2:0
Bit depth                      : 8 bits
Scan type                      : Progressive
Compression mode               : Lossy
Bits/(Pixel*Frame)             : 0.318
Stream size                    : 1.04 GiB (79%)
Writing library                : XviD 66

Audio
ID                             : 1
Format                         : AC-3
Format/Info                    : Audio Coding 3
Format settings, Endianness    : Big
Codec ID                       : 2000
Duration                       : 1 h 29 min
Bit rate mode                  : Constant
Bit rate                       : 448 kb/s
Channel(s)                     : 6 channels
Channel positions              : Front: L C R, Side: L R, LFE
Sampling rate                  : 48.0 kHz
Frame rate                     : 31.250 FPS (1536 SPF)
Bit depth                      : 16 bits
Compression mode               : Lossy
Stream size                    : 287 MiB (21%)
Alignment                      : Aligned on interleaves
Interleave, duration           : 42  ms (1.00 video frame)
Interleave, preload duration   : 512  ms
Service kind                   : Complete Main
Language                       : English
Default                        : Yes
Forced                         : No

Text
ID                             : 3
Format                         : UTF-8
Codec ID                       : S_TEXT/UTF8
Codec ID/Info                  : UTF-8 Plain Text
Duration                       : 1 h 29 min
Bit rate                       : 14 b/s
Count of elements              : 511
Stream size                    : 14.5 KiB (0%)
Language                       : French
Default                        : Yes
Forced                         : No